<?xml version="1.0" standalone="no"?>
<!DOCTYPE svg PUBLIC "-//W3C//DTD SVG 1.1//EN" "http://www.w3.org/Graphics/SVG/1.1/DTD/svg11.dtd" >
<svg xmlns="http://www.w3.org/2000/svg">
<metadata>Generated by IcoMoon</metadata>
<defs>
<font id="bogestra-iconfont" horiz-adv-x="2048">
<font-face units-per-em="2048" ascent="1664" descent="-384" />
<missing-glyph horiz-adv-x="2048" />
<glyph unicode="&#x20;" horiz-adv-x="1024" d="" />
<glyph unicode="&#xe900;" glyph-name="arrow-down" d="M960 1408v-1283.968l-433.984 433.984-92.032-92.032 544-544 46.016-43.968 46.016 44.032 544 544-92.032 92.032-433.984-434.048v1283.968h-128z" />
<glyph unicode="&#xe901;" glyph-name="arrow-left" d="M849.984 1230.016l-544-544-43.968-46.016 44.032-46.016 544-544 92.032 92.032-434.048 433.984h1283.968v128h-1283.968l433.984 433.984-92.032 92.032z" />
<glyph unicode="&#xe902;" glyph-name="arrow-right" d="M1198.016 1230.016l-92.032-92.032 433.984-433.984h-1283.968v-128h1283.968l-433.984-433.984 92.032-92.032 544 544 43.968 46.016-44.032 46.016-543.936 544z" />
<glyph unicode="&#xe903;" glyph-name="arrow-up" d="M1024 1401.984l-46.016-44.032-544-544 92.032-92.032 433.984 434.048v-1283.968h128v1283.968l433.984-433.984 92.032 92.032-544 544-46.016 43.968z" />
<glyph unicode="&#xe904;" glyph-name="chevron-down" d="M270.016 974.016l-92.032-92.032 800-800 46.016-43.968 46.016 44.032 800 800-92.032 92.032-753.984-754.048-753.984 753.984z" />
<glyph unicode="&#xe905;" glyph-name="chevron-left" d="M1217.984 1390.016l-704-704-43.968-46.016 44.032-46.016 704-704 92.032 92.032-658.048 657.984 657.984 657.984-92.032 92.032z" />
<glyph unicode="&#xe906;" glyph-name="chevron-right" d="M830.016 1390.016l-92.032-92.032 657.984-657.984-657.984-657.984 92.032-92.032 704 704 43.968 46.016-44.032 46.016-703.936 704z" />
<glyph unicode="&#xe907;" glyph-name="chevron-up" d="M1024 1241.984l-46.016-44.032-800-800 92.032-92.032 753.984 754.048 753.984-753.984 92.032 92.032-800 800-46.016 43.968z" />
<glyph unicode="&#xe908;" glyph-name="switch" d="M576 1434.496l410.496-410.496-90.496-90.496-256 256v-1317.504h-128v1317.504l-256-256-90.496 90.496 410.496 410.496zM1792 346.496l-256-256v1317.504h-128v-1317.504l-256 256-90.496-90.496 410.496-410.496 410.496 410.496-90.496 90.496z" />
<glyph unicode="&#xe909;" glyph-name="close" d="M1114.496 640l530.752-530.752-90.496-90.496-530.752 530.752-530.752-530.752-90.496 90.496 530.752 530.752-530.752 530.752 90.496 90.496 530.752-530.752 530.752 530.752 90.496-90.496-530.752-530.752z" />
<glyph unicode="&#xe90a;" glyph-name="menu" d="M256 1216h1536v-128h-1536v128zM256 704h1536v-128h-1536v128zM256 192h1536v-128h-1536v128z" />
<glyph unicode="&#xe90b;" glyph-name="search" d="M1216 1472c-352.896 0-640-287.104-640-640 0-153.472 54.4-294.4 144.768-404.736l-510.016-510.016 90.496-90.496 510.016 510.016c110.336-90.368 251.264-144.768 404.736-144.768 352.896 0 640 287.104 640 640s-287.104 640-640 640zM1216 320c-282.304 0-512 229.696-512 512s229.696 512 512 512 512-229.696 512-512-229.696-512-512-512z" />
<glyph unicode="&#xe90c;" glyph-name="radio-on" d="M1024 1408c-423.488 0-768-344.512-768-768s344.512-768 768-768c423.488 0 768 344.512 768 768s-344.512 768-768 768zM1024 0c-352.896 0-640 287.104-640 640s287.104 640 640 640c352.896 0 640-287.104 640-640s-287.104-640-640-640zM1280 640c0-141.376-114.624-256-256-256s-256 114.624-256 256c0 141.376 114.624 256 256 256s256-114.624 256-256z" />
<glyph unicode="&#xe90d;" glyph-name="radio-off" d="M1024 1408c-423.488 0-768-344.512-768-768s344.512-768 768-768c423.488 0 768 344.512 768 768s-344.512 768-768 768zM1024 0c-352.896 0-640 287.104-640 640s287.104 640 640 640c352.896 0 640-287.104 640-640s-287.104-640-640-640z" />
<glyph unicode="&#xe90e;" glyph-name="waypoint" d="M1024 1472c-317.568 0-576-258.432-576-576 0-294.272 469.76-982.784 523.328-1060.352l52.672-76.288 52.672 76.224c53.568 77.632 523.328 766.144 523.328 1060.416 0 317.568-258.368 576-576 576zM1024-13.568c-161.024 243.648-448 717.568-448 909.568 0 247.040 200.96 448 448 448 246.976 0 448-200.96 448-448 0-192-286.912-665.92-448-909.568zM1152 896c0-70.72-57.28-128-128-128s-128 57.28-128 128c0 70.72 57.28 128 128 128s128-57.28 128-128z" />
<glyph unicode="&#xe90f;" glyph-name="clock" d="M1661.184 211.712c87.040 125.44 130.816 268.16 130.816 428.288 0 160.064-43.776 302.72-130.752 428.16-55.552 82.432-126.656 153.536-209.088 209.088-125.44 86.976-268.096 130.752-428.16 130.752-160.192 0-302.912-43.84-428.352-130.88-82.304-55.488-153.28-126.528-208.768-208.768-87.104-125.504-130.88-268.224-130.88-428.352 0-160.192 43.84-302.976 130.944-428.48 55.488-82.176 126.4-153.088 208.576-208.576 125.504-87.104 268.288-130.944 428.48-130.944 160.064 0 302.784 43.776 428.224 130.816 82.368 55.488 153.408 126.592 208.96 208.896zM1519.424 235.456c-13.504-16.192-27.968-32-43.392-47.488s-31.232-29.888-47.424-43.392c-110.4-90.24-251.264-144.576-404.608-144.576-153.408 0-294.272 54.336-404.608 144.64-16.192 13.504-32 27.968-47.424 43.328-15.424 15.424-29.824 31.232-43.392 47.424-90.24 110.4-144.576 251.264-144.576 404.608 0 153.28 54.272 294.080 144.512 404.416 13.568 16.256 28.032 32.128 43.52 47.552s31.36 29.952 47.552 43.52c110.336 90.24 251.136 144.512 404.416 144.512s294.016-54.272 404.352-144.448c16.256-13.568 32.128-28.032 47.616-43.52s29.952-31.36 43.52-47.616c90.24-110.336 144.512-251.136 144.512-404.416 0-153.344-54.336-294.208-144.576-404.544zM1088 704h320v-128h-448v576h128v-448z" />
<glyph unicode="&#xe910;" glyph-name="route" d="M320 960c-141.184 0-256-114.816-256-256s114.816-256 256-256 256 114.816 256 256c0 141.184-114.816 256-256 256zM320 576c-70.592 0-128 57.408-128 128s57.408 128 128 128 128-57.408 128-128-57.408-128-128-128zM1728 960c-141.184 0-256-114.816-256-256s114.816-256 256-256 256 114.816 256 256c0 141.184-114.816 256-256 256zM1728 576c-70.592 0-128 57.408-128 128s57.408 128 128 128 128-57.408 128-128-57.408-128-128-128zM1069.248 1005.248l301.248-301.248-301.248-301.248-90.496 90.496 146.752 146.752h-421.504v128h421.504l-146.752 146.752 90.496 90.496z" />
<glyph unicode="&#xe911;" glyph-name="route-variant" d="M448 448c-176.448 0-320-143.552-320-320s143.552-320 320-320 320 143.552 320 320-143.552 320-320 320zM448-64c-105.856 0-192 86.144-192 192s86.144 192 192 192 192-86.144 192-192-86.144-192-192-192zM1472 1472c-176.448 0-320-143.552-320-320s143.552-320 320-320 320 143.552 320 320-143.552 320-320 320zM1472 960c-105.856 0-192 86.144-192 192s86.144 192 192 192 192-86.144 192-192-86.144-192-192-192zM704 832h448v-448h-128v229.504l-210.752-210.752-90.496 90.496 210.752 210.752h-229.504v128z" />
<glyph unicode="&#xe912;" glyph-name="deviation" d="M1565.44 1216h-541.44v128h-128v-128h-640v-576h1309.44l246.848 288-246.848 288zM1506.56 768h-1122.56v320h1122.56l137.152-160-137.152-160zM896 576h128v-640h-128v640z" />
<glyph unicode="&#xe913;" glyph-name="calendar" d="M1664 1344h-192v64h-128v-64h-640v64h-128v-64h-256v-1408h1408v1408h-64zM448 1216h128v-64h128v64h640v-64h128v64h128v-128h-1152v128zM1600 64h-1152v896h1152v-896zM960 704h-128v128h128v-128zM1216 704h-128v128h128v-128zM1472 704h-128v128h128v-128zM960 448h-128v128h128v-128zM704 448h-128v128h128v-128zM1216 448h-128v128h128v-128zM1472 448h-128v128h128v-128zM960 192h-128v128h128v-128zM704 192h-128v128h128v-128zM1216 192h-128v128h128v-128z" />
<glyph unicode="&#xe914;" glyph-name="map" d="M1278.464 1156.928l-512 192-510.464-218.752v-1227.264l513.6 220.096 512-192 510.4 218.816v1227.264l-513.536-220.16zM832 1187.648l384-144v-951.296l-384 144v951.296zM384 1045.824l320 137.152v-948.736l-320-137.152v948.736zM1664 234.176l-320-137.152v948.8l320 137.152v-948.8z" />
<glyph unicode="&#xe915;" glyph-name="facebook" d="M1024 1344c-388.8 0-704-315.2-704-704 0-351.424 257.408-642.624 593.984-695.488v491.904h-178.752v203.456h178.752v155.072c0 176.448 105.088 273.92 265.92 273.92 76.992 0 157.632-13.76 157.632-13.76v-173.248h-88.768c-87.488 0-114.752-54.272-114.752-109.952v-132.032h195.264l-31.232-203.456h-163.968v-491.904c336.512 52.864 593.92 344.064 593.92 695.488 0 388.8-315.2 704-704 704z" />
<glyph unicode="&#xe916;" glyph-name="linkedin" d="M1680 1296c-32 32-69.376 48-112 48h-1088c-42.688 0-80-16-112-48s-48-69.376-48-112v-1088c0-42.688 16-80 48-112s69.312-48 112-48h1088c42.624 0 80 16 112 48s48 69.312 48 112v1088c0 42.624-16 80-48 112zM768 192h-192v608h192v-608zM744 920c-21.376-21.376-46.656-32-76.032-32s-54.656 10.624-76.032 32c-21.376 21.312-32 46.656-32 76.032 0 29.312 10.624 54.656 32 76.032 21.312 21.312 46.656 32 76.032 32 29.312 0 54.656-10.688 76.032-32 21.312-21.376 32-46.656 32-76.032s-10.688-54.72-32-76.032zM1472 192h-188.032v296c0 106.624-33.344 160-99.968 160-74.688 0-112-51.968-112-156.032v-299.968h-188.032v608h179.968v-83.968h3.968c34.624 66.624 94.656 99.968 179.968 99.968 88 0 147.328-24.704 177.984-73.984 30.784-49.408 46.144-120.704 46.144-214.016v-336z" />
<glyph unicode="&#xe917;" glyph-name="twitter" d="M1792 1100.032c-42.688-64-94.656-118.656-156.032-163.968 0-13.376 0-26.688 0-40 0-106.688-19.968-211.968-60.032-316.032s-96.704-200-169.984-288c-73.344-88-168-158.656-284.032-211.968-115.904-53.44-243.264-80.064-381.952-80.064-176 0-337.344 46.656-483.968 140.032 24-2.688 49.344-3.968 76.032-3.968 146.624 0 277.312 45.312 392 136-69.376 0-130.688 20.608-184 62.016-53.376 41.344-90.688 94.016-112 158.016 18.624-5.376 38.656-8 60.032-8 29.312 0 57.344 3.968 83.968 12.032-74.688 15.872-136.064 52.48-184.064 109.888-48 57.344-72 123.328-72 198.016v3.968c45.376-24 93.376-37.376 144.064-40-93.376 64-140.032 152-140.032 264 0 56 14.656 109.312 44.032 160 168-208 384-318.656 648-332.032-5.376 24-8 48-8 72 0 88 30.656 162.624 92.032 224 61.312 61.312 136 92.032 224 92.032 90.624 0 166.656-33.344 227.968-99.968 72 13.312 138.624 38.656 200 76.032-24-74.688-69.376-131.968-136-172.032 61.312 7.936 121.28 23.936 179.968 48z" />
<glyph unicode="&#xe918;" glyph-name="alert" d="M1024 1409.024l-878.272-1537.024h1756.608l-878.336 1537.024zM1024 1150.976l657.664-1150.976h-1315.392l657.728 1150.976zM1088 704v-384h-128v384h128zM960 256h128v-128h-128v128z" />
<glyph unicode="&#xe919;" glyph-name="bus" d="M1633.408 1081.792h-51.456v23.232c0 96.512-78.464 174.976-174.848 174.976h-746.496c-96.384 0-174.848-78.464-174.848-174.976v-23.232h-51.456c-25.664 0-46.528-20.992-46.528-46.656v-233.28c0-25.664 20.864-46.592 46.528-46.592h51.456v-583.104c0-45.056 36.608-81.664 81.664-81.664h23.36v-104.96l0.512-4.928c0.128-1.856 0.192-3.584 0.512-5.504l0.128-1.152h0.192c4.352-22.272 22.208-48 61.632-48h101.824c24.704 0 60.16 13.184 66.496 48h0.704l1.28 11.584v104.96h419.776v-104.96l1.216-11.584h0.448c4.736-22.080 22.528-47.232 61.504-47.232h101.76c24.576 0 59.712 12.928 66.432 47.232h0.768l1.216 11.584v104.96h23.36c44.928 0 81.536 36.608 81.536 81.664v583.040h51.456c25.792 0 46.656 20.928 46.656 46.592v233.344c-0.128 25.664-20.992 46.656-46.784 46.656zM485.76 801.856h-51.456v233.28h51.456v-233.28zM777.344-14.464v-1.28c-0.32-5.696-3.776-8.64-7.68-10.048l-88.448-0.32h87.872c-4.288-1.344-8.704-1.152-9.728-1.152h-103.488c-1.536 0-3.904 0.32-6.464 0.96l31.744 0.192h-32.064c-4.736 1.344-9.664 4.672-11.712 12.032l-0.128 4.48v100.096h139.968v-104.96zM835.648 207.104c-15.808 0-29.696 7.872-38.080 19.904-10.752-12.096-26.24-19.904-43.584-19.904-23.168 0-43.008 13.696-52.416 33.216-10.496-10.304-24.896-16.704-40.896-16.704-32.128 0-58.24 26.048-58.24 58.304 0 32.064 26.176 58.24 58.24 58.24 23.296 0 43.072-13.696 52.48-33.152 10.624 10.304 25.024 16.768 40.832 16.768 23.36 0 43.392-13.824 52.736-33.792 7.936 6.464 17.92 10.496 28.928 10.496 25.664 0 46.592-20.928 46.592-46.656 0-25.792-20.864-46.72-46.592-46.72zM1430.336-14.464l-1.024-3.904c-3.328-8.128-14.976-8-16.832-8.064h-103.424c-4.48 0-15.808 1.728-18.624 13.952v102.976h139.904v-104.96zM1407.104 223.616c-15.872 0-30.464 6.4-40.832 16.704-9.536-19.584-29.312-33.152-52.608-33.152-17.344 0-32.896 7.68-43.52 19.84-8.448-12.032-22.336-19.84-38.080-19.84-25.728 0-46.656 20.864-46.656 46.592s20.928 46.656 46.656 46.656c11.008 0 21.056-4.032 28.992-10.496 9.28 19.968 29.248 33.728 52.608 33.728 16 0 30.4-6.464 40.96-16.704 9.408 19.456 29.248 33.152 52.48 33.152 32.128 0 58.24-26.176 58.24-58.24 0-32.192-26.112-58.24-58.24-58.24zM1512.064 522.048h-244.928c-211.072 0-320.32-51.648-366.656-82.304-10.88-7.232-23.872-11.008-37.632-11.008h-307.072v606.4h956.288v-513.088zM1512.064 1081.792h-956.288v23.232c0 57.92 47.040 104.96 104.832 104.96h747.392c-3.136 0.32 8.576 0 8.576 0 53.376-4.864 95.488-50.304 95.488-104.96v-23.232zM1633.408 801.856h-51.456v233.28h51.456v-233.28z" />
<glyph unicode="&#xe91a;" glyph-name="metro" d="M1599.36 573.888v764.096h-304.96c0 0 0-748.608 0-768.512 0-131.072-21.696-198.784-60.992-240.896-42.688-45.76-123.456-85.376-205.824-86.912-79.488-1.408-150.336 26.176-192.128 69.696-87.68 91.264-77.76 258.112-77.76 258.112v774.528h-304.96v-771.52c0.576-44.224-9.472-299.264 162.24-477.952 99.392-103.424 237.632-158.272 399.68-158.528 227.136-0.32 359.232 92.8 430.016 171.072 156.544 172.8 157.696 408.256 154.688 466.816z" />
<glyph unicode="&#xe91b;" glyph-name="tram-fast" d="M485.952 422.4c142.336-186.944 325.44-286.976 506.624-286.976 116.608 0 220.16 74.752 220.16 136.896 0 87.232-51.776 137.216-207.168 162.112-336.64 74.688-556.608 261.568-556.608 473.472 0 249.152 220.032 436.096 556.672 436.096 271.552 1.024 424.384-151.808 453.184-186.944v-261.632c-194.24 186.816-336.64 261.632-453.184 261.632-181.248 0-246.016-62.272-246.016-137.024 0-87.232 90.624-149.504 246.016-186.944 414.336-124.608 530.752-224.256 530.752-436.096 0-249.28-233.024-461.056-530.752-461.056-207.232 0-312.64 25.344-519.616 187.456v299.008z" />
<glyph unicode="&#xe91c;" glyph-name="train" d="M1298.432 1180.224c-5.184 0-10.432-0.064-14.464-0.256h-205.568v36.096l221.184 217.152c6.592 6.464 8.64 16.192 5.12 24.704-3.392 8.576-11.776 14.080-20.928 14.080h-452.928c-9.216 0-17.472-5.504-20.992-13.952-3.456-8.448-1.472-18.24 4.992-24.768l218.304-217.216v-36.16h-201.408c-7.36 0.256-14.592 0.384-21.824 0.384-113.536 0-264.512-30.848-264.512-297.664v-772.352c0-86.72 80.576-145.856 205.312-150.528 8.896-0.32 20.864-0.64 35.328-0.96v-112.576c0-21.12 19.968-38.272 44.672-38.272 24.64 0 44.608 17.152 44.608 38.272v111.36c55.808-0.512 123.136-0.832 192.768-0.832 32.576 0 89.152 0.064 143.872 0.576v-111.104c0-21.12 19.968-38.272 44.608-38.272s44.672 17.152 44.672 38.272v112.384c14.528 0.32 27.264 0.704 36.928 1.216 127.552 6.272 203.712 62.464 203.712 150.528v772.352c0.064 200.192-79.616 297.536-243.456 297.536zM885.696 1426.688h342.656l-172.352-169.28-170.304 169.28zM959.872 504.704c0 2.816 2.24 5.12 5.056 5.12h157.568c2.816 0 5.056-2.304 5.056-5.12v-75.52c0-2.752-2.304-4.992-5.056-4.992h-157.568c-2.752 0-5.056 2.24-5.056 4.992v75.52zM1194.368 200.32c0 2.816 2.304 5.12 5.056 5.12h157.632c2.752 0 5.056-2.304 5.056-5.12v-75.52c0-2.816-2.24-5.056-5.056-5.056h-157.632c-2.752 0-5.056 2.304-5.056 5.056v75.52zM1330.816 702.464c0-42.176-0.96-42.944-49.792-42.944h-225.792v342.4h186.816c88.704 0 88.704-11.2 88.704-48.448v-251.008zM1032.064 659.52h-222.528c-52.992 0-52.992 0-52.992 42.944v251.008c0 37.248 0 48.448 88.704 48.448h186.816v-342.4zM725.312 200.32c0 2.88 2.176 5.12 5.056 5.12h157.568c2.752 0 4.992-2.304 4.992-5.12v-75.52c0-2.816-2.24-5.056-4.992-5.056h-157.568c-2.816 0-5.056 2.304-5.056 5.056v75.52z" />
<glyph unicode="&#xe91d;" glyph-name="checkbox-off" d="M1536 1152v-1024h-1024v1024h1024zM1664 1280h-1280v-1280h1280v1280z" />
<glyph unicode="&#xe91e;" glyph-name="checkbox-on" d="M1536 640h128v-640h-1280v1280h1024v-128h-896v-1024h1024v512zM725.334 853.334l-85.334-85.334 384-384 896 896-85.334 85.334-810.666-810.666-298.666 298.666z" />
<glyph unicode="&#xe91f;" glyph-name="tram" d="M1314.944 1102.4h-250.176v47.040l220.8 216.832c6.592 6.464 8.576 16.192 5.12 24.64-3.52 8.512-11.84 14.016-20.992 14.016h-452.096c-9.216 0-17.408-5.568-20.928-13.952-3.52-8.448-1.536-18.176 4.992-24.64l217.92-216.832v-47.104h-247.232c-93.44 0-169.6-76.096-169.6-169.6v-949.568c0-43.584 35.456-79.168 79.104-79.168h192.192v-67.776c0 0 2.304-28.288 34.176-28.288 31.808 0 33.664 28.288 33.664 28.288v67.776h203.456v-67.776c0 0 1.536-28.288 34.304-28.288s33.536 28.288 33.536 28.288v67.776h192.128c43.648 0 79.232 35.584 79.232 79.168v949.632c0.064 93.44-76.032 169.536-169.6 169.536zM872.448 1359.744h342.016l-172.16-168.96-169.856 168.96zM770.24 211.712c-5.76-4.352-12.736-6.976-20.416-6.976-18.624 0-33.856 15.168-33.856 33.856 0 18.752 15.232 33.92 33.856 33.92 7.744 0 14.656-2.752 20.416-6.976 8.192 11.072 21.312 18.304 36.16 18.304 13.568 0 25.6-6.144 33.856-15.616 8.256 9.472 20.352 15.616 33.856 15.616 24.96 0 45.248-20.288 45.248-45.248s-20.288-45.248-45.248-45.248c-13.504 0-25.664 6.208-33.856 15.68-8.32-9.472-20.288-15.68-33.856-15.68-14.912 0-27.968 7.296-36.16 18.368zM1269.824 62.336c-219.072-13.888-452.288 0-452.288 0-18.624 0-33.856 15.232-33.856 33.984 0 18.688 15.232 33.856 33.856 33.856 0 0 238.272-18.944 452.288 0 18.624 0 33.856-15.168 33.856-33.856 0-18.752-11.648-33.984-33.856-33.984zM1337.6 204.672c-7.68 0-14.72 2.688-20.416 7.040-8.256-11.072-21.376-18.368-36.224-18.368-13.504 0-25.536 6.208-33.856 15.616-8.32-9.408-20.416-15.616-33.984-15.616-24.896 0-45.248 20.288-45.248 45.248 0 24.896 20.288 45.248 45.248 45.248 13.568 0 25.664-6.144 33.984-15.616 8.256 9.472 20.288 15.616 33.856 15.616 14.848 0 27.968-7.232 36.16-18.304 5.696 4.352 12.736 6.976 20.416 6.976 18.752 0 33.92-15.232 33.92-33.92 0.128-18.688-15.104-33.92-33.856-33.92zM1416.768 398.080c0-20.288-5.824-30.4-29.376-30.4h-687.36c-23.616 0-29.376 10.112-29.376 30.4v436.48c0 21.824 5.824 30.464 29.376 30.464h687.36c23.488 0 29.376-10.368 29.376-30.464v-436.48z" />
<glyph unicode="&#xe920;" glyph-name="ICE" d="M1265.472 1132.288c-3.968 0.896-93.184 20.928-197.632 24v29.12l230.72 220.16c6.848 6.528 8.96 16.448 5.376 25.024-3.712 8.64-12.352 14.272-21.824 14.272h-472.512c-9.536 0-18.176-5.632-21.888-14.144-3.712-8.64-1.536-18.496 5.184-25.088l227.712-220.16v-29.184c-90.112-3.072-189.184-22.912-193.728-23.808l-3.136-0.768c-150.72-43.84-311.744-183.488-311.744-444.096 0-386.688 70.016-579.584 72.32-585.728 44.096-142.464 221.632-293.888 463.744-293.888 257.088 0 407.616 157.248 458.496 292.032 2.944 8 72.96 200.896 72.96 587.648 0 239.68-157.568 404.928-314.048 444.608zM866.752 1398.912h357.44l-179.776-171.584-177.664 171.584zM897.472 969.472h296.576c85.12 0 168.64-55.552 170.176-112.704l-1.408-10.304c-272.576 17.28-551.808 0.256-633.408-5.568l-2.176 15.872c1.536 57.152 85.12 112.704 170.24 112.704zM1355.648 785.472l-19.328-129.344-0.256-3.584c0-63.040-63.68-114.304-142.016-114.304h-296.576c-78.336 0-142.016 51.264-142.016 114.304l-18.432 132.928c82.88 5.952 350.016 16.896 618.624 0zM1385.6 82.624l-12.48-108.992-54.144-46.848 15.168 142.144c0 0 10.944 39.36-20.032 44.608-88.128 14.784-476.48 8.256-534.72-4.224-30.144-6.464-20.16-46.72-20.16-46.72l17.28-139.2-54.592 50.304-15.296 99.904c-4.864 23.488 2.048 60.608 34.624 81.216l-11.648 108.16 136.896-11.264 3.584-3.072 14.72-72.192c94.72 4.16 225.216 5.568 322.368 2.816l14.144 69.376 3.584 3.072 136.832 11.264-11.2-102.72c30.976-19.456 37.248-56.576 35.072-77.632z" />
<glyph unicode="&#xe921;" glyph-name="walk" d="M942.976 1255.168c0 84.416 69.376 152.832 154.88 152.832s154.88-68.416 154.88-152.832-69.376-152.832-154.88-152.832-154.88 68.416-154.88 152.832zM1488.064 846.592c-19.328 32.512-61.696 43.456-94.592 24.384l-132.416-76.608-95.168 202.688c-13.632 40.832-49.408 72.768-95.424 79.616-14.272 2.112-28.288 1.536-41.664-1.216-9.088-0.896-18.112-3.584-26.624-8.192l-283.456-155.072c-17.92-9.792-30.528-26.88-34.368-46.72l-40.96-208.96c-7.232-37.056 17.28-72.832 54.72-80 4.416-0.832 8.896-1.28 13.248-1.28 32.448 0 61.44 22.656 67.84 55.296l34.816 177.728 80.64 44.096 140.544 77.44c4.224 2.304 9.6 0.832 11.968-3.456 2.368-4.224 0.832-9.472-3.456-11.84l-129.152-71.232-41.024-270.016c-0.192-1.152-0.192-2.176-0.32-3.328l-56.32-280.832-206.528-119.296c-32.96-19.072-44.032-60.864-24.768-93.376 12.864-21.696 35.968-33.792 59.776-33.792 11.84 0 23.872 3.008 34.88 9.344l233.408 134.848c17.088 9.856 29.056 26.496 32.896 45.632l47.872 238.912 132.416-259.392-74.368-252.864c-10.624-36.224 10.432-74.048 47.104-84.544 6.336-1.664 12.8-2.56 19.2-2.56 30.016 0 57.6 19.392 66.368 49.216l81.984 278.656c4.864 16.576 3.2 34.304-4.672 49.728l-148.032 289.856c-1.216 2.368-2.816 4.416-4.224 6.592l28.096 184.96 29.184-62.208c8.192-17.472 23.488-30.72 42.112-36.416 6.784-2.112 13.696-3.136 20.672-3.136 12.16 0 24.256 3.136 34.944 9.344l198.080 114.56c33.088 19.136 44.096 60.928 24.768 93.44z" />
<glyph unicode="&#xe922;" glyph-name="info" d="M1024 1472c-458.752 0-832-373.248-832-832s373.248-832 832-832c458.752 0 832 373.248 832 832s-373.248 832-832 832zM1024-64c-388.16 0-704 315.84-704 704s315.84 704 704 704 704-315.84 704-704-315.84-704-704-704zM960 1024h128v-128h-128v128zM960 768h128v-576h-128v576z" />
<glyph unicode="&#xe923;" glyph-name="car" d="M1876.224 835.264l-40.512 121.408-124.864-41.664-86.144 292.096c-24.576 81.92-98.496 136.896-183.936 136.896h-833.536c-85.44 0-159.36-54.976-183.936-136.832l-87.488-291.648-123.584 41.216-40.512-121.408 127.296-42.432-40.32-134.464-2.048-402.432h-0.64v-256h267.776c64.064 0 116.224 52.096 116.224 116.224v11.776h768v-11.776c0-64.128 52.096-116.224 116.224-116.224h267.776v640l-44.928 152.256 129.152 43.008zM545.92 1170.368c8.192 27.264 32.832 45.632 61.312 45.632h833.472c28.48 0 53.12-18.368 61.312-45.568l82.368-274.432h-1120.768l82.304 274.368zM384 256v374.592l41.216 137.408h1197.568l41.216-137.408v-374.592h-1280zM640 608c0-52.992-43.008-96-96-96s-96 43.008-96 96 43.008 96 96 96 96-43.008 96-96zM1600 608c0-52.992-43.008-96-96-96s-96 43.008-96 96 43.008 96 96 96 96-43.008 96-96zM704 512h640v-128h-640v128z" />
<glyph unicode="&#xe924;" glyph-name="bicycle" d="M1600 512c-28.672 0-55.936-4.992-82.368-12.096l-134.080 268.096h-551.552v128h-128v-172.608l-117.248-175.872 106.496-70.976 108.992 163.456h400.704l-335.936-384h-105.408c-29.824 145.856-159.104 256-313.6 256-176.448 0-320-143.552-320-320s143.552-320 320-320c154.496 0 283.776 110.144 313.536 256h163.52l404.352 462.080 73.856-147.648c-74.496-58.624-123.264-148.544-123.264-250.432 0-176.448 143.552-320 320-320s320 143.552 320 320-143.552 320-320 320zM448 0c-105.856 0-192 86.144-192 192s86.144 192 192 192 192-86.144 192-192-86.144-192-192-192zM1600 0c-105.856 0-192 86.144-192 192s86.144 192 192 192 192-86.144 192-192-86.144-192-192-192zM1600 832h-256v128h256c105.856 0 192-86.144 192-192s-86.144-192-192-192v128c35.328 0 64 28.736 64 64s-28.672 64-64 64zM832 960h-384v128h384v-128z" />
<glyph unicode="&#xe925;" glyph-name="ICEC" d="M1265.472 1132.288c-3.968 0.896-93.184 20.928-197.632 24v29.12l230.72 220.16c6.848 6.528 8.96 16.448 5.376 25.024-3.712 8.64-12.352 14.272-21.824 14.272h-472.512c-9.536 0-18.176-5.632-21.888-14.144-3.712-8.64-1.536-18.496 5.184-25.088l227.712-220.16v-29.184c-90.112-3.072-189.184-22.912-193.728-23.808l-3.136-0.768c-150.72-43.84-311.744-183.488-311.744-444.096 0-386.688 70.016-579.584 72.32-585.728 44.096-142.464 221.632-293.888 463.744-293.888 257.088 0 407.616 157.248 458.496 292.032 2.944 8 72.96 200.896 72.96 587.648 0 239.68-157.568 404.928-314.048 444.608zM866.752 1398.912h357.44l-179.776-171.584-177.664 171.584zM897.472 969.472h296.576c85.12 0 168.64-55.552 170.176-112.704l-1.408-10.304c-272.576 17.28-551.808 0.256-633.408-5.568l-2.176 15.872c1.536 57.152 85.12 112.704 170.24 112.704zM1355.648 785.472l-19.328-129.344-0.256-3.584c0-63.040-63.68-114.304-142.016-114.304h-296.576c-78.336 0-142.016 51.264-142.016 114.304l-18.432 132.928c82.88 5.952 350.016 16.896 618.624 0zM1385.6 82.624l-12.48-108.992-54.144-46.848 15.168 142.144c0 0 10.944 39.36-20.032 44.608-88.128 14.784-476.48 8.256-534.72-4.224-30.144-6.464-20.16-46.72-20.16-46.72l17.28-139.2-54.592 50.304-15.296 99.904c-4.864 23.488 2.048 60.608 34.624 81.216l-11.648 108.16 136.896-11.264 3.584-3.072 14.72-72.192c94.72 4.16 225.216 5.568 322.368 2.816l14.144 69.376 3.584 3.072 136.832 11.264-11.2-102.72c30.976-19.456 37.248-56.576 35.072-77.632z" />
<glyph unicode="&#xe926;" glyph-name="roller" d="M1728 256c-105.856 0-192-86.144-192-192s86.144-192 192-192 192 86.144 192 192-86.144 192-192 192zM1728 0c-35.328 0-64 28.672-64 64s28.672 64 64 64 64-28.672 64-64-28.672-64-64-64zM1645.248 338.752l-0.256 0.256c16.96 17.024 23.936 42.688 15.168 66.816l-271.36 746.176h-236.8c-35.392 0-64-28.672-64-64s28.608-64 64-64h147.2l226.752-623.552-272.448-272.448h-490.624c-31.232 216.704-217.664 384-442.88 384v-128c154.496 0 283.776-110.144 313.536-256h-133.312c-26.496 74.304-96.896 128-180.224 128-105.856 0-192-86.144-192-192s86.144-192 192-192c83.328 0 153.728 53.696 180.224 128h806.272l338.752 338.752zM320 0c-35.264 0-64 28.672-64 64s28.736 64 64 64 64-28.672 64-64-28.736-64-64-64z" />
<glyph unicode="&#xe927;" glyph-name="Taxi" d="M1876.224 835.264l-40.512 121.408-124.864-41.664-86.144 292.096c-24.576 81.92-98.496 136.896-183.936 136.896h-182.080l-13.504 40.448c-17.408 52.288-66.368 87.552-121.472 87.552h-199.488c-55.104 0-104-35.264-121.408-87.552l-13.504-40.448h-182.080c-85.44 0-159.36-54.976-183.936-136.832l-87.488-291.648-123.584 41.216-40.512-121.408 127.296-42.432-40.32-134.464-2.048-402.432h-0.64v-256h267.776c64.064 0 116.224 52.096 116.224 116.224v11.776h768v-11.776c0-64.128 52.096-116.224 116.224-116.224h267.776v640l-44.928 152.256 129.152 43.008zM545.92 1170.368c8.192 27.264 32.832 45.632 61.312 45.632h833.472c28.48 0 53.12-18.368 61.312-45.568l82.368-274.432h-1120.768l82.304 274.368zM384 256v374.592l41.216 137.408h1197.568l41.216-137.408v-374.592h-1280zM640 608c0-52.992-43.008-96-96-96s-96 43.008-96 96 43.008 96 96 96 96-43.008 96-96zM1600 608c0-52.992-43.008-96-96-96s-96 43.008-96 96 43.008 96 96 96 96-43.008 96-96zM768 640h512v-128h-512v128z" />
<glyph unicode="&#xe928;" glyph-name="instagram" d="M768.064 640c0 141.376 114.56 256 255.936 256s256-114.624 256-256-114.624-256-256-256-255.936 114.624-255.936 256zM629.632 640c0-217.792 176.576-394.368 394.368-394.368s394.368 176.576 394.368 394.368-176.576 394.368-394.368 394.368-394.368-176.576-394.368-394.368zM1341.824 1049.984c0-50.88 41.28-92.16 92.16-92.16s92.16 41.344 92.16 92.16-41.28 92.096-92.16 92.096-92.16-41.216-92.16-92.096zM713.728 14.848c-74.88 3.392-115.584 15.872-142.592 26.432-35.84 13.952-61.44 30.592-88.32 57.472s-43.52 52.416-57.472 88.256c-10.56 27.072-23.040 67.712-26.432 142.592-3.712 80.96-4.48 105.28-4.48 310.336s0.832 229.376 4.48 310.336c3.392 74.88 15.936 115.52 26.432 142.592 13.952 35.84 30.592 61.44 57.472 88.32s52.416 43.52 88.32 57.472c27.072 10.56 67.712 23.040 142.592 26.432 80.96 3.712 105.28 4.48 310.272 4.48 205.12 0 229.376-0.832 310.336-4.48 74.88-3.392 115.52-15.936 142.592-26.432 35.84-13.888 61.44-30.592 88.32-57.472s43.456-52.48 57.472-88.32c10.56-27.072 23.040-67.712 26.432-142.592 3.712-81.024 4.48-105.28 4.48-310.336s-0.768-229.376-4.48-310.336c-3.392-74.88-15.936-115.584-26.432-142.592-13.952-35.84-30.592-61.44-57.472-88.256-26.88-26.88-52.48-43.456-88.32-57.472-27.072-10.56-67.712-23.040-142.592-26.432-80.96-3.712-105.28-4.48-310.336-4.48-205.056 0.064-229.376 0.768-310.272 4.48zM707.392 1403.328c-81.792-3.712-137.6-16.64-186.432-35.648-50.496-19.584-93.312-45.888-136.064-88.576-42.688-42.688-68.992-85.504-88.576-136.064-19.008-48.832-31.936-104.64-35.648-186.432-3.776-81.856-4.672-108.032-4.672-316.608s0.896-234.752 4.672-316.608c3.712-81.792 16.704-137.6 35.648-186.432 19.584-50.496 45.824-93.376 88.576-136.064 42.688-42.688 85.504-68.928 136.064-88.576 48.896-19.008 104.64-31.936 186.432-35.648 81.92-3.712 108.032-4.672 316.608-4.672 208.64 0 234.752 0.896 316.608 4.672 81.792 3.712 137.6 16.704 186.432 35.648 50.496 19.648 93.312 45.888 136.064 88.576 42.688 42.688 68.928 85.568 88.576 136.064 19.008 48.832 32 104.64 35.648 186.432 3.712 81.92 4.608 108.096 4.608 316.608s-0.896 234.752-4.608 316.608c-3.712 81.792-16.704 137.6-35.648 186.432-19.648 50.496-45.888 93.312-88.576 136.064-42.688 42.688-85.568 68.992-136 88.576-48.896 19.008-104.704 32-186.432 35.648-81.856 3.712-108.032 4.672-316.608 4.672-208.64 0-234.752-0.896-316.672-4.672z" />
<glyph unicode="&#xe929;" glyph-name="youtube" d="M1881.408 1073.536c-20.608 77.504-81.216 138.56-158.208 159.232-139.584 37.696-699.2 37.696-699.2 37.696s-559.616 0-699.2-37.632c-76.992-20.736-137.664-81.792-158.208-159.296-37.376-140.48-37.376-433.536-37.376-433.536s0-293.056 37.376-433.536c20.608-77.504 81.216-138.56 158.208-159.232 139.584-37.696 699.2-37.696 699.2-37.696s559.616 0 699.2 37.632c76.992 20.736 137.664 81.728 158.208 159.232 37.376 140.544 37.376 433.6 37.376 433.6s0 293.056-37.376 433.536zM840.96 373.888v532.16l467.776-266.048-467.776-266.112z" />
<glyph unicode="&#xe92a;" glyph-name="contrast" d="M2010.496 640l-45.248 45.248c-19.072 19.072-472.128 466.752-941.248 466.752s-922.176-447.68-941.248-466.752l-45.248-45.248 45.248-45.248c18.176-18.176 432.448-426.496 878.336-463.168 20.672-2.24 41.6-3.584 62.912-3.584s42.24 1.344 62.912 3.584c445.888 36.672 860.096 444.928 878.336 463.168l45.248 45.248zM1416.448 919.168c36.096-65.664 55.552-139.712 55.552-215.168 0-246.976-201.024-448-448-448-247.040 0-448 201.024-448 448 0 75.456 19.52 149.504 55.616 215.232 122.496 60.16 258.112 104.768 392.384 104.768s269.888-44.608 392.448-104.832zM461.376 821.952c-8.064-38.72-13.376-78.080-13.376-117.952 0-103.68 27.904-200.832 76.096-284.928-133.504 79.296-242.496 168.448-301.76 220.928 49.728 43.968 134.464 113.792 239.040 181.952zM1523.904 419.072c48.192 84.096 76.096 181.248 76.096 284.928 0 39.872-5.312 79.232-13.44 117.952 104.64-68.16 189.376-137.984 239.104-181.952-59.264-52.48-168.256-141.632-301.76-220.928zM832 704c0 106.048 85.952 192 192 192s192-85.952 192-192-85.952-192-192-192-192 85.952-192 192z" />
<glyph unicode="&#xe92b;" glyph-name="language" d="M744.192 659.52c-80.768-37.44-168.192-51.52-232.192-51.52l-0.128 128c4.096 0 37.568 0.512 81.344 9.024-79.040 81.664-81.216 181.312-81.216 182.976h64l64 0.896c0.32-11.52 6.144-85.504 93.12-129.024 55.104 37.568 98.88 97.216 98.88 192.128h-320v128h192v64h128v-64h192v-128h-64c0-94.912-28.608-168-72.704-223.68 3.008-0.064 5.632-0.32 8.704-0.32v-128c-59.712 0-109.248 7.616-151.808 19.52zM1280 687.104l281.28-562.496-114.496-57.28-46.336 92.672h-240.896l-46.336-92.608-114.496 57.28 281.28 562.432zM1336.448 288l-56.448 112.896-56.448-112.896h112.896zM1792 1024v-1184h-1152v416h-384v1152h1152v-384h384zM384 384h293.504l602.496 602.496v293.504h-896v-896zM1664 896h-293.504l-602.496-602.496v-325.504h896v928z" />
<glyph unicode="&#xe92c;" glyph-name="route-new-variant" d="M692.672 155.648c44.672 64.576 267.328 394.816 267.328 548.352 0 176.448-143.552 320-320 320s-320-143.552-320-320c0-153.536 222.656-483.776 267.328-548.352l52.672-76.288 52.672 76.288zM448 704c0 105.856 86.144 192 192 192s192-86.144 192-192c0-69.888-99.904-252.288-192-396.224-92.096 143.936-192 326.336-192 396.224zM640 640c-35.328 0-64 28.672-64 64s28.672 64 64 64 64-28.672 64-64-28.672-64-64-64zM1472 655.36l52.672 76.224c33.984 49.216 203.328 300.48 203.328 420.416 0 141.184-114.816 256-256 256s-256-114.816-256-256c0-119.936 169.344-371.2 203.328-420.352l52.672-76.288zM1472 1280c70.592 0 128-57.408 128-128 0-42.368-59.776-158.336-128-267.456-68.288 109.056-128 225.024-128 267.456 0 70.592 57.408 128 128 128zM1472 1088c-35.328 0-64 28.672-64 64s28.672 64 64 64 64-28.672 64-64-28.672-64-64-64zM1472 538.496l237.248-237.248-90.496-90.496-82.752 82.752v-229.504c0-105.856-86.144-192-192-192h-704v128h704c35.328 0 64 28.672 64 64v229.504l-82.752-82.752-90.496 90.496 237.248 237.248z" />
<glyph unicode="&#xe92d;" glyph-name="route-new" d="M628.672 155.648c44.672 64.576 267.328 394.816 267.328 548.352 0 176.448-143.552 320-320 320s-320-143.552-320-320c0-153.536 222.656-483.776 267.328-548.352l52.672-76.288 52.672 76.288zM384 704c0 105.856 86.144 192 192 192s192-86.144 192-192c0-69.888-99.904-252.288-192-396.224-92.096 143.936-192 326.336-192 396.224zM1280 1408v-576h-64v-128h256v128h-64v192h384v384h-512zM1664 1152h-256v128h256v-128zM576 640c-35.328 0-64 28.672-64 64s28.672 64 64 64 64-28.672 64-64-28.672-64-64-64zM1344 602.496l237.248-237.248-90.496-90.496-82.752 82.752v-293.504c0-105.856-86.144-192-192-192h-640v128h640c35.328 0 64 28.672 64 64v293.504l-82.752-82.752-90.496 90.496 237.248 237.248z" />
<glyph unicode="&#xe92e;" glyph-name="service" d="M1280 1344v64c0 70.592-57.408 128-128 128h-256c-70.592 0-128-57.408-128-128v-64h-384v-1472h1280v1472h-384zM768 1216h128v192h256v-192h128v-128h-512v128zM1536 0h-1024v1216h128v-128c0-70.592 57.408-128 128-128h512c70.592 0 128 57.408 128 128v128h128v-1216zM1298.752 749.248l90.496-90.496-429.248-429.248-237.248 237.248 90.496 90.496 146.752-146.752 338.752 338.752z" />
<glyph unicode="&#xe92f;" glyph-name="ticket" d="M1671.744 1106.752l-45.248-45.248c-24.192-24.192-56.32-37.504-90.496-37.504-70.592 0-128 57.408-128 128 0 34.176 13.312 66.304 37.504 90.496l45.312 45.248-271.616 271.552-1111.232-1111.296 270.72-270.72 45.248 43.136c24.064 22.976 55.36 35.584 88.064 35.584 70.592 0 128-57.408 128-128 0-32.704-12.672-64-35.648-88.064l-43.072-45.248 270.72-270.72 1111.296 1111.232-271.552 271.552zM734.72 2.176c21.696 38.144 33.28 81.28 33.28 125.824 0 141.184-114.816 256-256 256-44.544 0-87.68-11.584-125.76-33.28l-97.28 97.28 930.24 930.304 96.192-96.192c-23.104-39.040-35.392-83.584-35.392-130.112 0-141.184 114.816-256 256-256 46.528 0 91.136 12.288 130.048 35.392l96.256-96.192-930.304-930.24-97.28 97.216zM1197.248 877.248l-90.496-90.496-64 64 90.496 90.496 64-64zM1069.248 1005.248l-90.496-90.496-64 64 90.496 90.496 64-64zM1325.248 749.248l-90.496-90.496-64 64 90.496 90.496 64-64zM1389.248 685.248l64-64-90.496-90.496-64 64 90.496 90.496z" />
<glyph unicode="&#xe930;" glyph-name="contrast-off" d="M1193.152 289.856c-35.264-14.464-72.704-24.704-111.744-29.76-19.136-1.728-38.272-4.096-57.408-4.096-247.040 0-448 201.024-448 448 0 58.432 11.52 116.032 33.408 169.6l-117.12 117.12c-231.616-130.432-398.080-294.144-409.472-305.536l-45.312-45.184 45.248-45.248c18.176-18.176 432.448-426.496 878.336-463.168 20.672-2.24 41.6-3.584 62.912-3.584 95.872 0 190.848 19.328 281.792 49.216l-112.64 112.64zM222.336 640c49.728 43.968 134.4 113.664 239.040 181.76-8.064-38.656-13.376-77.952-13.376-117.76 0-103.68 27.904-200.832 76.096-284.928-133.504 79.296-242.496 168.448-301.76 220.928zM1965.248 685.248c-19.072 19.072-472.128 466.752-941.248 466.752-95.872 0-190.848-19.328-281.792-49.216l102.912-102.912c59.072 15.104 119.104 24.128 178.88 24.128 134.272 0 269.888-44.608 392.448-104.832 36.096-65.664 55.552-139.712 55.552-215.168 0-93.696-29.248-180.416-78.656-252.352l162.496-162.496c231.616 130.432 398.080 294.144 409.472 305.536l45.184 45.312-45.248 45.248zM1523.968 419.072c48.128 84.16 76.032 181.248 76.032 284.928 0 39.872-5.312 79.232-13.44 117.952 104.64-68.16 189.376-137.984 239.104-181.952-59.264-52.48-168.192-141.632-301.696-220.928zM1171.776 582.784l601.472-601.472-90.496-90.496-624.704 624.704c-11.072-2.048-22.4-3.52-34.048-3.52-106.048 0-192 85.952-192 192 0 11.648 1.472 22.976 3.456 34.048l-624.704 624.704 90.496 90.496 601.472-601.472c33.152 27.2 75.008 44.224 121.28 44.224 106.048 0 192-85.952 192-192 0-46.272-17.024-88.128-44.224-121.216z" />
<glyph unicode="&#xe931;" glyph-name="elevator" d="M448 896v-1024h1152v1024h-1152zM576 768h384v-768h-384v768zM1472 0h-384v768h384v-768zM621.248 1234.752l-90.496 90.496 237.248 237.248 237.248-237.248-90.496-90.496-82.752 82.752v-293.504h-128v293.504l-82.752-82.752zM1280 997.504l-237.248 237.248 90.496 90.496 82.752-82.752v293.504h128v-293.504l82.752 82.752 90.496-90.496-237.248-237.248z" />
<glyph unicode="&#xe932;" glyph-name="elevator-var-1" d="M384 1088v-1280h1280v1280h-1280zM1536-64h-1024v1024h1024v-1024zM621.248 1234.752l-90.496 90.496 237.248 237.248 237.248-237.248-90.496-90.496-146.752 146.752-146.752-146.752zM1280 1189.504l-237.248 237.248 90.496 90.496 146.752-146.752 146.752 146.752 90.496-90.496-237.248-237.248zM832 0h128v218.496l-64 64v101.504c0 35.328 28.736 64 64 64h128c35.328 0 64-28.672 64-64v-101.504l-64-64v-218.496h128v165.504l64 64v154.496c0 82.624-52.672 152.512-126.016 179.584 37.888 35.072 62.016 84.8 62.016 140.416 0 105.856-86.144 192-192 192s-192-86.144-192-192c0-55.616 24.128-105.344 62.016-140.416-73.344-27.072-126.016-97.024-126.016-179.584v-154.496l64-64v-165.504zM1024 768c35.264 0 64-28.736 64-64s-28.736-64-64-64-64 28.736-64 64 28.736 64 64 64z" />
<glyph unicode="&#xe933;" glyph-name="elevator-var-2" d="M192 1216v-1344h1664v1344h-1664zM1728 0h-1408v1088h1408v-1088zM1088 128h-128v832h128v-832zM493.248 530.752l-90.496 90.496 237.248 237.248 237.248-237.248-90.496-90.496-82.752 82.752v-293.504h-128v293.504l-82.752-82.752zM1408 293.504l-237.248 237.248 90.496 90.496 82.752-82.752v293.504h128v-293.504l82.752 82.752 90.496-90.496-237.248-237.248zM704 1408c0 35.328 28.672 64 64 64s64-28.672 64-64-28.672-64-64-64-64 28.672-64 64zM960 1408c0 35.328 28.672 64 64 64s64-28.672 64-64-28.672-64-64-64-64 28.672-64 64zM1216 1408c0 35.328 28.672 64 64 64s64-28.672 64-64-28.672-64-64-64-64 28.672-64 64z" />
<glyph unicode="&#xe934;" glyph-name="transportation-other" d="M701.568 135.040l0.768 7.168c-46.272 26.176-74.944 67.52-78.592 118.144-93.504 2.24-233.408-1.6-260.352-7.552-18.88-4.16-12.608-30.144-12.608-30.144l10.816-89.792-34.24 32.448-9.6 64.448c-3.072 15.168 1.28 39.104 21.696 52.416l-7.296 69.76 85.824-7.232 2.24-1.984 9.216-46.592c56.768 2.56 133.824 3.456 193.728 1.984v231.488h-185.792c-49.088 0-89.024 33.088-89.024 73.792l-11.52 85.76c41.344 3.072 156.224 8.128 286.336 4.544v39.104c-132.352 2.56-250.624-4.928-291.136-7.936l-1.408 10.24c0.96 36.864 53.376 72.704 106.752 72.704h185.792v7.488c0 33.984 3.584 69.824 12.864 103.744-22.912 3.84-55.936 8.192-91.84 9.28v18.816l144.64 142.016c4.288 4.224 5.632 10.624 3.328 16.128-2.304 5.568-7.744 9.216-13.696 9.216h-296.256c-6.016 0-11.392-3.648-13.76-9.088-2.24-5.568-0.96-11.904 3.328-16.192l142.72-142.080v-18.816c-56.512-1.984-118.592-14.784-121.408-15.36l-1.984-0.512c-94.464-28.224-195.392-118.336-195.392-286.528 0-249.536 43.904-374.016 45.312-377.92 27.648-91.904 138.944-189.632 290.688-189.632 86.208 0 153.152 29.184 201.792 69.504-9.408 3.456-18.368 7.36-26.752 11.776l-5.184-4.608zM418.048 1084.864h224.064l-112.704-110.72-111.36 110.72zM1872.192 840.128h-34.816v15.744c0 65.28-53.056 118.336-118.272 118.336h-321.088c8.064-15.232 14.336-31.104 19.136-47.36h302.464c-2.112 0.192 5.824 0 5.824 0 36.096-3.328 64.576-34.048 64.576-70.976v-15.744h-358.656c0.448-8.576 0.704-16.96 0.704-24.832v-6.72h357.952v-347.008h-165.632c-88.448 0-150.464-13.44-192.256-28.544v-161.664c0-35.2-12.16-72.064-40.96-101.632h217.472v-70.976l0.832-7.808h0.32c3.2-14.976 15.232-31.936 41.6-31.936h68.8c16.64 0 40.384 8.768 44.928 31.936h0.512l0.832 7.808v70.976h15.808c30.4 0 55.168 24.768 55.168 55.232v394.368h34.816c17.408 0 31.552 14.144 31.552 31.552v157.76c-0.064 17.28-14.208 31.488-31.616 31.488zM1734.848 98.688l-0.704-2.624c-2.24-5.504-10.112-5.44-11.392-5.44h-69.952c-3.072 0-10.688 1.152-12.608 9.408v69.696h94.656v-71.040zM1719.104 259.712c-10.752 0-20.608 4.288-27.584 11.328-6.464-13.248-19.84-22.4-35.584-22.4-11.712 0-22.208 5.184-29.44 13.376-5.696-8.128-15.104-13.376-25.728-13.376-17.408 0-31.552 14.144-31.552 31.488 0 17.408 14.144 31.552 31.552 31.552 7.424 0 14.208-2.752 19.584-7.104 6.272 13.504 19.776 22.784 35.584 22.784 10.816 0 20.544-4.352 27.712-11.328 6.4 13.12 19.776 22.4 35.456 22.4 21.696 0 39.424-17.728 39.424-39.36 0-21.696-17.664-39.36-39.424-39.36zM1872.192 650.816h-34.816v157.76h34.816v-157.76zM1207.104 1024.832c-3.648 0-7.296-0.064-10.176-0.192h-144.768v25.472l155.776 152.96c4.608 4.544 6.080 11.456 3.648 17.408-2.432 6.016-8.32 9.92-14.784 9.92h-318.976c-6.464 0-12.288-3.904-14.784-9.792-2.432-5.952-1.024-12.864 3.52-17.472l153.728-152.96v-25.536h-141.824c-5.184 0.192-10.24 0.256-15.36 0.256-80 0-186.304-21.76-186.304-209.664v-543.936c0-61.056 56.768-102.72 144.576-105.984 6.272-0.256 14.72-0.448 24.896-0.704v-79.296c0-14.848 14.080-26.944 31.424-26.944s31.424 12.096 31.424 26.944v78.464c39.296-0.384 86.72-0.576 135.808-0.576 22.912 0 62.784 0.064 101.312 0.384v-78.272c0-14.848 14.080-26.944 31.424-26.944s31.424 12.096 31.424 26.944v79.168c10.24 0.256 19.2 0.512 26.048 0.832 89.856 4.416 143.488 44.032 143.488 105.984v543.936c-0.064 141.056-56.128 209.6-171.52 209.6zM1167.424 899.264c62.464 0 62.464-7.936 62.464-34.112v-176.768c0-29.696-0.64-30.272-35.072-30.272h-159.040v241.152h131.648zM916.416 1198.464h241.344l-121.408-119.232-119.936 119.232zM825.408 865.152c0 26.24 0 34.112 62.464 34.112h131.584v-241.152h-156.736c-37.312 0-37.312 0-37.312 30.272v176.768zM921.472 281.536c0-1.984-1.6-3.584-3.52-3.584h-110.976c-1.984 0-3.584 1.6-3.584 3.584v53.184c0 2.048 1.536 3.584 3.584 3.584h110.976c1.92 0 3.52-1.6 3.52-3.584v-53.184zM1086.72 495.872c0-1.92-1.6-3.52-3.584-3.52h-110.976c-1.92 0-3.52 1.6-3.52 3.52v53.184c0 1.984 1.6 3.584 3.52 3.584h110.976c1.984 0 3.584-1.6 3.584-3.584v-53.184zM1251.904 281.536c0-1.984-1.6-3.584-3.52-3.584h-111.040c-1.984 0-3.584 1.6-3.584 3.584v53.184c0 1.984 1.6 3.584 3.584 3.584h111.040c1.92 0 3.52-1.6 3.52-3.584v-53.184z" />
<glyph unicode="&#xe935;" glyph-name="icon-waiting-time" d="M1024 1399.040c-423.488 0-768-344.512-768-768s344.512-768 768-768 768 344.576 768 768-344.448 768-768 768zM1039.104-46.144v195.328c0 8.448-6.784 15.104-15.104 15.104s-15.104-6.592-15.104-15.104v-195.328c-361.664 7.936-654.272 300.544-662.272 662.144h195.392c8.384 0 15.168 6.784 15.168 15.104s-6.784 14.976-15.168 14.976h-195.392c8 361.728 300.608 654.208 662.272 662.272v-195.52c0-8.192 6.784-14.976 15.104-14.976s15.104 6.784 15.104 14.976v195.52c361.664-8.128 654.272-300.544 662.272-662.272h-195.456c-8.32 0-15.104-6.592-15.104-14.976s6.784-15.104 15.104-15.104h195.456c-8-361.664-300.608-654.272-662.272-662.144zM1411.008 1066.752v0s-340.032-324.864-340.032-324.864c-14.528 6.208-30.336 9.664-47.040 9.664-20.736 0-40.384-5.312-57.472-14.592l-197.056 173.12c-19.2 15.936-47.68 13.312-63.488-6.080-16-19.328-13.184-47.68 6.080-63.616l197.056-173.312c-3.648-11.392-5.568-23.552-5.568-36.032 0-66.496 54.016-120.512 120.512-120.512 13.952 0 27.392 2.496 39.936 6.912l187.52-375.040 13.504-8.384 6.592 1.664c7.552 3.712 10.624 12.736 6.912 20.224l-187.648 374.912c32.384 21.696 53.568 58.432 53.568 100.16 0 16.704-3.328 32.576-9.472 46.912l340.032 324.864c17.6 17.6 17.6 46.272 0 63.872-17.664 17.6-46.4 17.6-63.872 0zM1024 570.88c-33.152 0-60.224 27.008-60.224 60.224s27.008 60.16 60.224 60.16 60.224-27.008 60.224-60.16-27.072-60.224-60.224-60.224z" />
</font>
</defs>
</svg>
